M2TS på DR1 ser ud til at mangle lydspor | YouSee Community
Svar

M2TS på DR1 ser ud til at mangle lydspor


Jeg optager en del tv på min DVB-C-optager og jeg har observeret, at siden slutningen af forrige uge (omkring 6. maj), så vil mange af de programmer, jeg bruger til at afspille og håndtere mine optagelser (fx videoafspillerne VLC og MPC-HC og div. streamkonverteringsprogrammer) ikke anerkende, at der er nogen lyd i de M2TS-streams, som er optaget på DR1 og DR3 - kun video . Jeg har ikke testet på alle kanaler, men det er ikke et program på fx DR K, TV 2 eller TV 3, så det kunne se se ud til at være et isoleret problem på DR1, DR3, sjovt lige præcis de DR-kanaler, som stadig sender 720p. Mit tv og min tv-optager kan godt finde ud af at håndtere lyden, men der må da næsten være et eller andet galt, når programmer ikke virker korrekt. Har andre observeret dette problem? Kan der blive gjort noget ved det?

For nørderne: Her eksempler på programmet mkvmerge, som ikke kan identificere lydstreamen på DR3:

M:\PVRRECORD\DR3-17052017-1442.pvr>mkvmerge -o test.mkv data0001.ts
mkvmerge v11.0.0 ('Alive') 64bit
'data0001.ts': Using the demultiplexer for the format 'MPEG transport stream'.
'data0001.ts' track 32: Using the output module for the format 'AVC/h.264 (unframed)'.
The file 'test.mkv' has been opened for writing.
'data0001.ts' track 32: Extracted the aspect ratio information from the MPEG-4 layer 10 (AVC) video data and set the display dimensions to 1280/720.
Progress: 100%
The cue entries (the index) are being written...
Multiplexing took 1 second.

men kan godt på TV 2 (både stereo og 5.1):

M:\PVRRECORD\Krejlerkongen-17052017-1441.pvr>mkvmerge -o test.mkv data0001.ts
mkvmerge v11.0.0 ('Alive') 64bit
'data0001.ts': Using the demultiplexer for the format 'MPEG transport stream'.
'data0001.ts' track 2: Using the output module for the format 'AVC/h.264 (unframed)'.
'data0001.ts' track 3: Using the output module for the format 'MP3'.
'data0001.ts' track 4: Using the output module for the format 'AC-3'.
The file 'test.mkv' has been opened for writing.
'data0001.ts' track 2: Extracted the aspect ratio information from the MPEG-4 layer 10 (AVC) video data and set the display dimensions to 1280/720.
Progress: 100%
The cue entries (the index) are being written...
Multiplexing took 1 second.
icon

Bedste svar af normann1974 24 maj 2017, 16:22

Kanalnumre og id'er har jeg ikke styr på, men det er IKKE syn-udgaven, jeg har optaget. Den ligger et helt andet sted på min optageboks (en bt-dct110), og det er også meget hurtigt at høre, at det er den rigtige DR1, for du kan køre min fil gennem ffmpeg og få et virkende lydtrack:

ffmpeg -i dr1.ts -c:a copy -c:v copy dr1-fix.ts

Så kan du høre, at det ikke er et synstolket lydspor.

Jeg har nu også prøvet at optage fra synstolkingskanalen, som man kan hente eksempel på herfra: https://filebin.ca/3NZqzbuYMvwN/dr1-syn.ts

Den kan afspilles direkte med virkende (synstolket) lyd, og ffmpeg siger følgende om den fil:

Input #0, mpegts, from 'dr1-syn.ts':
Duration: 00:00:11.18, start: 47343.917422, bitrate: 11805 kb/s
Program 101
Program 190
Program 1160
Stream #0:0[0xbf]: Unknown: none ([5][0][0][0] / 0x0005)
Stream #0:1[0xc0]: Unknown: none ([11][0][0][0] / 0x000B)
Stream #0:2[0x458](dan): Subtitle: dvb_teletext ([6][0][0][0] / 0x0006)
Stream #0:3[0x488]: Video: h264 ([27][0][0][0] / 0x001B), none, 90k tbr, 90k tbn, 180k tbc
Stream #0:4[0x489](dan): Audio: mp3 ([3][0][0][0] / 0x0003), 0 channels, s16p
Program 1170
Program 1500
Program 2000
No Program
Stream #0:5[0x459]: Audio: mp2, 48000 Hz, stereo, s16p, 192 kb/s
Stream #0:6[0x456]: Video: h264 (High), yuv420p(tv, bt709, progressive), 1280x720 [SAR 1:1 DAR 16:9], 50 fps, 50 tbr, 90k tbn, 100 tbc
Se original

15 Kommentarer

Det problem har jeg ikke lige oplevet. mkvmerge siger:

mkvmerge -i dr.ts
File 'dr.ts': container: MPEG transport stream
Track ID 0: video (MPEG-4p10/AVC/h.264)
Track ID 1: audio (MP2)
Det problem har jeg ikke lige oplevet. mkvmerge siger:

mkvmerge -i dr.ts
File 'dr.ts': container: MPEG transport stream
Track ID 0: video (MPEG-4p10/AVC/h.264)
Track ID 1: audio (MP2)


Er det også 720p-versionen, du modtager? Jeg får:

mkvmerge -i data0001.ts
File 'data0001.ts': container: MPEG transport stream
Track ID 32: video (MPEG-4p10/AVC/h.264)

Billedet viser, hvad MPC-HC siger.
MediaInfo siger det samme (kun videostream).
Ja, 720p...

Jeg kan ikke konkludere andet end at vi må modtage to forskellige streams. Track-ID'et er jo heller ikke det samme. Er der andre med erfaringer, evt. brugere i Randers, hvor jeg bor?

Hvordan melder man sådan en fejl til YouSee? Det vil jo være helt umuligt at forklare en 1st level supporter i telefonen eller på mail. Læser de med her?
Omdømme 7
Badge +7
Hej normann1974

Jeg tror ikke vi kan gøre så meget her desværre, for det skulle vel umiddelbart medføre en ændring i vores signalering :?
Hej normann1974

Jeg tror ikke vi kan gøre så meget her desværre, for det skulle vel umiddelbart medføre en ændring i vores signalering :?


Men har I overhovedet kigget på problematikken, eller er dit svar et standardsvar? Jeg kan ikke læse ud af dit svar, om du er tekniker eller om problematikken har været forbi en tekniker, som har afvist den.

Jeg formoder, at YouSee ønsker at udsende streams, som overholder alle standarder, og jeg har grund til at tro, at det ikke er tilfældet længere for de kanaler, som jeg har fejlmeldt ovenfor. Min situation er jo tydeligvis resultat af en ændring, som er blevet lavet inden for den sidste måned, da det indtil ændringen har fungeret upåklageligt i årevis, og det er tydeligvis også noget, som i kraft af Logans svar ikke er ens forskellige steder i landet.
Omdømme 7
Badge +7
Hej normann1974

Problematikken har ikke været forbi en tekniker, men jeg sender dit indlæg videre og gør opmærksom på din observation 🙂
Hvis det kan bruges, er her eksempler på de streams, der udsendes via dvb-c på hhv. DR1, DR3 og DRK (lavet 24.5 kl. ca. 15) her i Randers. De to første har problemet, mens den tredje ikke har.

DR1: https://filebin.ca/3NZW6WvIfrVN/dr1.ts
DR3: https://filebin.ca/3NZWFGvx8Kne/dr3.ts
DRK: https://filebin.ca/3NZWjFFu9P8w/drk.ts
Dine ts-filer ligner ikke helt mine. ffmpeg siger følgende om din dr1:
Input #0, mpegts, from 'dr1.ts':
Duration: 00:00:10.44, start: 43470.151467, bitrate: 11927 kb/s
Program 101
Program 190
Stream #0:0[0x31](dan): Subtitle: dvb_teletext ([6][0][0][0] / 0x0006)
Stream #0:1[0x456]: Video: h264 (High) ([27][0][0][0] / 0x001B), yuv420p(tv, bt709, progressive), 1280x720 [SAR 1:1 DAR 16:9], 50 fps, 50 tbr, 90k tbn, 100 tbc
Stream #0:2[0x459](Syn): Audio: mp3 ([3][0][0][0] / 0x0003), 0 channels, s16p
Program 1160
Program 1170
Program 1500
Program 2000
No Program
Stream #0:3[0x457]: Audio: mp2, 48000 Hz, stereo, s16p, 192 kb/s


Min dr.ts:
Input #0, mpegts, from 'dr.ts':
Duration: 00:00:16.31, start: 11670.281600, bitrate: 11131 kb/s
Program 101
Stream #0:0[0x31](dan): Subtitle: dvb_teletext ([6][0][0][0] / 0x0006)
Stream #0:1[0xbf]: Unknown: none ([5][0][0][0] / 0x0005)
Stream #0:2[0xc0]: Unknown: none ([11][0][0][0] / 0x000B)
Stream #0:3[0x456]: Video: h264 (High) ([27][0][0][0] / 0x001B), yuv420p(tv, bt709, progressive), 1280x720 [SAR 1:1 DAR 16:9], 50 fps, 50 tbr, 90k tbn, 100 tbc
Stream #0:4[0x457](dan): Audio: mp2 ([3][0][0][0] / 0x0003), 48000 Hz, stereo, s16p, 192 kb/s


På 586 MHz ligger følgende program-id'er:

586 MHz
1: DR1 (id=101, QAM=64) DR1
2: DR2 (id=1160, QAM=64) DR2
88: SVT2 (id=2000, QAM=64) SVT2
91: ARD (id=1500, QAM=64) ARD
890: DR1Syn (id=190, QAM=64) DR Synstolkning
891: DR2Syn (id=1170, QAM=64) DR2Syn


Forskellen på vores ts-filer skal muligvis findes i tuner/optage-software, tænker jeg. Jeg bruger hdhomerun som tuner.

Læg også mærke til, at du optager fra program id 190 - som er syn-udgaven.
Kanalnumre og id'er har jeg ikke styr på, men det er IKKE syn-udgaven, jeg har optaget. Den ligger et helt andet sted på min optageboks (en bt-dct110), og det er også meget hurtigt at høre, at det er den rigtige DR1, for du kan køre min fil gennem ffmpeg og få et virkende lydtrack:

ffmpeg -i dr1.ts -c:a copy -c:v copy dr1-fix.ts

Så kan du høre, at det ikke er et synstolket lydspor.

Jeg har nu også prøvet at optage fra synstolkingskanalen, som man kan hente eksempel på herfra: https://filebin.ca/3NZqzbuYMvwN/dr1-syn.ts

Den kan afspilles direkte med virkende (synstolket) lyd, og ffmpeg siger følgende om den fil:

Input #0, mpegts, from 'dr1-syn.ts':
Duration: 00:00:11.18, start: 47343.917422, bitrate: 11805 kb/s
Program 101
Program 190
Program 1160
Stream #0:0[0xbf]: Unknown: none ([5][0][0][0] / 0x0005)
Stream #0:1[0xc0]: Unknown: none ([11][0][0][0] / 0x000B)
Stream #0:2[0x458](dan): Subtitle: dvb_teletext ([6][0][0][0] / 0x0006)
Stream #0:3[0x488]: Video: h264 ([27][0][0][0] / 0x001B), none, 90k tbr, 90k tbn, 180k tbc
Stream #0:4[0x489](dan): Audio: mp3 ([3][0][0][0] / 0x0003), 0 channels, s16p
Program 1170
Program 1500
Program 2000
No Program
Stream #0:5[0x459]: Audio: mp2, 48000 Hz, stereo, s16p, 192 kb/s
Stream #0:6[0x456]: Video: h264 (High), yuv420p(tv, bt709, progressive), 1280x720 [SAR 1:1 DAR 16:9], 50 fps, 50 tbr, 90k tbn, 100 tbc
Jeg har i despearation lavet en ny kanalsøgning på min boks, og det har affødt, at lyden i de optagede filer nu på nærmest magisk vis virker, og ffmpeg siger nu om DR1:

Input #0, mpegts, from 'data0001.ts':
Duration: 15:11:14.08, start: 48398.697544, bitrate: 2 kb/s
Program 101
Stream #0:0[0x31](dan): Subtitle: dvb_teletext ([6][0][0][0] / 0x0006)
Stream #0:1[0xbf]: Unknown: none ([5][0][0][0] / 0x0005)
Stream #0:2[0xc0]: Unknown: none ([11][0][0][0] / 0x000B)
Stream #0:3[0x456]: Video: h264 (High) ([27][0][0][0] / 0x001B), yuv420p(tv, bt709, progressive), 1280x720 [SAR 1:1 DAR 16:9], 50 fps, 50 tbr, 90k tbn, 100 tbc
Stream #0:4[0x457](dan): Audio: mp2 ([3][0][0][0] / 0x0003), 48000 Hz, stereo, s16p, 192 kb/s
Program 190
Program 1160
Program 1170
Program 1500
Program 2000

Der må være gået koks i ét eller andet i optageren ifm. nogle kanalomlægninger, ellers kan jeg ikke forklare det. Anyway, I kan derfor lukke sagen uden tekniker-bistand.
Ifølge ffmpeg optager du her fra id 1160, som er DR2, men det gør du tydeligvis ikke. Der er noget rod i opbygningen af dine ts-filer. :)

DR 1 og DR 1 Syn har forskellige lydspor, men er fælles om h264-sporet. Jeg ved ikke, om det måske kan forvirre dit optageprogram.
Nå... det var godt 🙂
Jeg tænker, at optageren er blevet forvirret efter en omlægning. Det er bare mystisk, for jeg har ikke hørt om nogen omlægninger i starten af maj måned. Men anyway - problemet er løst. Jeg skulle nok have postet de filer noget tidligere, eller én skulle have foreslået mig at lave en kanalsøgning igen. 🙂

Besvar