Svar

Lydformat på TV2


Omdømme 3

Her kan du se, hvor mange omdømmepoints Radiomanden har modtaget fra andre medlemmer.

Badge +3
 Som overskrift siger, hvilket lydformat modtager i på TV2, er det DD 2.0 eller er det DD 5.1. Har aldrig lagt mærke til at der modtages andet end 2.0. Er der andet end 2.0 lyd på kanalen fra You See, og i så fald hvorfor, har hørt fra andre med anden udbyder, at der er 5.1 på kanalen. Når der på TVet ses på information om signal, står der altid DD2.0, på SVT f.eks, modtages der DD5.1

icon

Bedste svar af Radiomanden 4 januar 2016, 17:47

Underligt, jeg har aldrig observeret at modtage med andet end DD 2.0. Når jeg går ind i udsendelse lyd indstillinger, så kan der vælges MPEG eller DD 2.0, det er alt.

Kan TVet modtage 5.1, ja der er f.eks 5.1 på SVT.

Se original

4 Kommentarer

Jeg modtager begge lydspor

Omdømme 3

Her kan du se, hvor mange omdømmepoints Radiomanden har modtaget fra andre medlemmer.

Badge +3
 Lyder underligt, jeg har kun DD2.0, lader lige tråden køre lidt endnu, så der er flere der kan svare.

Helt specifikt modtager jeg følgende:

Input #0, mpegts, from 'TV2 - 04-01-2016 17-36-19.ts':
Duration: 00:00:05.08, start: 25317.368244, bitrate: 7578 kb/s
Program 1200
Stream #0:0[0x4b0]: Video: h264 (High) ([27][0][0][0] / 0x001B), yuv420p(tv, bt709), 1280x720 [SAR 1:1 DAR 16:9], 50 fps, 50 tbr, 90k tbn, 100 tbc
Stream #0:1[0x4b1]: Audio: mp2 ([3][0][0][0] / 0x0003), 48000 Hz, stereo, s16p, 192 kb/s
Stream #0:2[0x4b2](dan): Subtitle: dvb_teletext ([6][0][0][0] / 0x0006)
Stream #0:3[0x4b6]: Audio: ac3 ([6][0][0][0] / 0x0006), 48000 Hz, 5.1(side), fltp, 448 kb/s
Omdømme 3

Her kan du se, hvor mange omdømmepoints Radiomanden har modtaget fra andre medlemmer.

Badge +3
Underligt, jeg har aldrig observeret at modtage med andet end DD 2.0. Når jeg går ind i udsendelse lyd indstillinger, så kan der vælges MPEG eller DD 2.0, det er alt.

Kan TVet modtage 5.1, ja der er f.eks 5.1 på SVT.

Besvar

    • :D
    • :?
    • :cool:
    • :S
    • :(
    • :@
    • :$
    • :8
    • :)
    • :P
    • ;)